Доктор Стрэндж

Лицензия

Добыча

Дубляж

Дом дракона

1 сезон

Тор

Дубляж

В эфире

Дубляж

Там, где раки поют

MVO

Властелин колец

1 сезон

Ultimate

pack

Рекомендуем

30

Пиратка

ВАЖНО

ВАЖНО

Ghostwire

Пиратка

jed

RePack

nioh2

RePack

RDR2

RePack

NEED FOR SPEED™ PAYBACK

RePack

скачать торрент

Кинопоиск HD

Острые козырьки 6 сезон

6 сезон

FAR CRY 6

RePack

скачать торрент

Лицензия

скачать торрент

MVO

1

1 сезон

скачать торрент

1 сезон

скачать торрент

Лицензия

  

Надвое / Сезон: 1 / Серии: 1-9 из 9 (Валерий Тодоровский) [2022, Мелодрама, WEB-DL 1080p]

Надвое через торрент sdcv.piratbit.fun

Раздают: 10 [ 269 KB/s ] Качают: 6 [ 4 MB/s ]
Размер: 14.15 GB | Добавлен: 5 д. назад | Торрент скачан:36 раз
Смотреть онлайн | Скачать   

03-10-2022 06:13 Надвое Скачать торрент  

Надвое
Год выпуска: 2022
Страна: Россия
Производство: Национальная Медиа Группа (НМГ), Продюсерская компания Валерия Тодоровского, ВГТРК
Жанр: Мелодрама
Продолжительность: ~ 00:45:00 серия
Субтитры: отсутствуют

Режиссер: Валерий Тодоровский

rating

В ролях: Данила Козловский, Александр Петров, Ирина Старшенбаум, Елизавета Базыкина, Анна Синякина, Анастасия Волынская, Елена Смирнова, Андрей Ташков, Алексей Фатеев, Валерий Ярёменко, Нина Гизбрехт, Светлана Флейтес, Сергей Яценюк

Описание: Давно женатый сдержанный умник Костя и молодой раскованный шутник Саня обожают вести философские и ироничные разговоры о женщинах. В Питере друзья знакомятся сначала с эксцентричной тусовщицей Ирой, а позже - с загадочной виолончелисткой Настей. Две эти встречи делят жизни Кости и Сани надвое.

Качество: WEB-DL 1080p
Формат: MKV

Видео: MPEG-4 AVC, 1920x1080, ~ 4000 Кбит/с, 0.076 bit/pixel, 25 Кадр/с
Аудио: 48.0 kHz, AC3 Dolby Digital, 2/0 (L,R) ch, ~ 192 kbps
скриншот  скриншот  скриншот  скриншот  

Общее
Уникальный идентификатор : 197628061759492808303510002856567339732 (0x94ADC7BB258CD8707A9815FDA87D7AD4)
Полное имя : D:\Nadvoe.S01.2022.WEB-DL.1080p\Nadvoe.S01.E01.2022.WEB-DL.1080p.mkv
Формат : Matroska
Версия формата : Version 4
Размер файла : 1,47 Гбайт
Продолжительность : 50 м. 45 с.
Общий поток : 4 157 Кбит/сек
Название фильма : Nadvoe.S01.E01.2022.WEB-DL.1080p
Дата кодирования : UTC 2022-10-03 09:06:06
Программа кодирования : mkvmerge v68.0.0 ('The Curtain') 64-bit
Библиотека кодирования : libebml v1.4.2 + libmatroska v1.6.4
Attachments : poster.jpg

Видео
Идентификатор : 1
Формат : AVC
Формат/Информация : Advanced Video Codec
Профиль формата : [email protected]
Настройки формата : CABAC / 3 Ref Frames
Параметр CABAC формата : Да
Параметр RefFrames формата : 3 кадра
Идентификатор кодека : V_MPEG4/ISO/AVC
Продолжительность : 50 м. 45 с.
Битрейт : 3 963 Кбит/сек
Ширина : 1 920 пикселей
Высота : 1 080 пикселей
Соотношение сторон : 16:9
Режим частоты кадров : Постоянный
Частота кадров : 25,000 кадров/сек
Цветовое пространство : YUV
Субдискретизация насыщенности : 4:2:0
Битовая глубина : 8 бит
Тип развёртки : Прогрессивная
Бит/(Пиксели*Кадры) : 0.076
Размер потока : 1,40 Гбайт (95%)
Default : Да
Forced : Нет

Аудио
Идентификатор : 2
Формат : AC-3
Формат/Информация : Audio Coding 3
Коммерческое название : Dolby Digital
Идентификатор кодека : A_AC3
Продолжительность : 50 м. 45 с.
Вид битрейта : Постоянный
Битрейт : 192 Кбит/сек
Каналы : 2 канала
Channel layout : L R
Частота : 48,0 КГц
Частота кадров : 31,250 кадров/сек (1536 SPF)
Метод сжатия : С потерями
Размер потока : 69,7 Мбайт (5%)
Заголовок : [Original | AC-3 Audio]
Язык : Russian
Service kind : Complete Main
Default : Да
Forced : Нет

Внимание! Раздача ведётся путём добавления новых серий; при каждом добавлении создаётся новый торрент.
Чтобы начать докачку новой серии, пользователям необходимо сделать следующее:
1. Остановить скачивание;
2. Удалить старый торрент у себя из клиента (старые серии удалять не надо);
3. Скачать новый торрент и запустить его у себя в клиенте вместо старого, при этом указать клиенту путь в старую папку куда и должно происходить скачивание новых серий. Ваш клиент при этом должен произвести хеширование (проверку) старой папки и будет докачивать только те серии, которых у вас ещё нет. Старые серии при этом не удаляются, а продолжают раздаваться! Eсли вы уже удалили старые серии, то предотвратить повторную закачку старых серий можно, отжав галочку в соответствующих местах при запуске нового торрента.



Скачать Надвое через торрент https://i120.fastpic.org/big/2022/0925/9e/f666bf37dd632ffabdedc614343f549e.jpg Скачать, смотреть онлайн Надвое бесплантно в хорошем качестве Описание: Давно женатый сдержанный умник Костя и молодой раскованный шутник Саня обожают вести философские и ироничные разговоры о ... 8.5 10 13
Торрент: Зарегистрирован [2022-11-21 18:01] · скачан: 36 раз
Статус: √ проверено
Размер: 14.15 GB
Как cкачать? Как скачать Надвое через торрент | UTorrent

% Раздел Тема Автор DL S | L
Наши сериалы [ 6.32 GB ] Надвое / Сезон: 1 / Серии: 1-9 из 9 | | DLRip bober100 Скачать
14 | 7



Последний раз редактировалось: bober100 (2022-11-21 18:01), всего редактировалось 5 раз(а)

28-11-2019 20:33  


Отключить вcю реклaмy на сайте, в т.ч. и в плеере онлайн просмотра!

19-10-2022 08:33 Надвое Скачать торрент  

сериал прикольный, Ирина Старшенбаум когда в первой серии появилась накрашенной просто вау



    Дорогой пользователь! Огромная просьба, поблагодарите релизера, оцените раздачу и оставьте свои комментарий, если Вы скачали Надвое через торрент бесплатно!!
    Комментировать посты могут только пользователи прошедшие не сложную регистрацию
    Показать сообщения:    


    Надвое через торрент
    Скачать бесплатно Надвое
    Надвое скачать торрент
    Надвое смотреть онлайн
    Cкачать фильм Надвое бесплатно
    Надвое скачать торрент в хорошем качестве
    Надвое смотреть онлайн бесплатно в хорошем качестве
    Вы не можете начинать темы
    Вы не можете отвечать на сообщения
    Вы не можете редактировать свои сообщения
    Вы не можете удалять свои сообщения
    Вы не можете голосовать в опросах
    Вы не можете прикреплять файлы к сообщениям
    Вы можете скачивать файлы
    Надвое / Сезон: 1 / Серии: 1-9 из 9 [2022, Мелодрама, WEB-DL 1080p] смотреть онлайн, скачать торрент picoco.icu